DNS SERVER AENDERNum der staatlichen Zensur zu umgehen. Sollten wir von eurem Provider geseprrt werden, nutzt den TOR BROWSER oder ändert euren DNS SERVER.

Filmwünsche können bei uns im Forum abgegeben werden

Wir Speichern Nicht




 
 
 
Top Releases
American.Animals.2018.German...
Aufbruch.zum.Mond.2018.Germa...
Aufbruch.zum.Mond.2018.Germa...
Aufbruch.zum.Mond.2018.Germa...
Die.Unglaublichen.2.2018.Ger...
Die.Unglaublichen.2.2018.Ger...
Take.The.Ball.Pass.The.Ball....
Take.The.Ball.Pass.The.Ball....
Upgrade.German.DL.AC3.Dubbed...
Upgrade.German.DL.AC3.Dubbed...

Cinedubs
Dont.Worry.weglaufen.geht.ni...
Dont.Worry.weglaufen.geht.ni...
Gaensehaut.2.Gruseliges.Hall...
Aquaman.TS.LD.German.DL.720p...
Eho.Echo.German.720p.WEBRip....
Eho.Echo.German.1080p.WEBRip...
Bad.Times.at.the.El.Royale.2...
Bad.Spies.2018.German.DL.AC3...
Aquaman.2018.GERMAN.AC3.MD.7...
Bad.Spies.German.DL.AC3.Dubb...

Neuerscheinungen 2018-19
Der.Honorarkonsul.Beyond.the...
Take.The.Ball.Pass.The.Ball....
Predator.Upgrade.2018.MULTi....
Solo.2018.German.1080p.WEB.x...
Solo.2018.German.720p.WEB.x2...
The.Last.Laugh.2019.German.D...
Night.School.EXTENDED.German...
Night.School.EXTENDED.German...
Terrifier.UNCUT.GERMAN.2016....
Dieter.der.Film.2006.German....

XXX
MyLifeInMiami.18.12.05.Vina....
Lustery.E157.Maya.And.Edward...
NinaKayy.17.05.12.Foot.Teasi...
NataliaStarr.18.03.09.Sexy.W...
NataliaStarr.18.03.09.Heatin...
NataliaStarr.18.03.09.Cummin...
NHLPCentral.18.12.26.April.P...
NinaKayy.17.05.06.Foot.Domin...
MomXXX.18.12.27.Kiki.Minaj.X...
MyLifeInMiami.18.12.21.Kitty...
MommyBlowsBest.18.12.26.Lexi...
NinaKayy.17.05.09.Sexting.Yo...
MyLifeInMiami.18.11.30.Brook...
NataliaStarr.18.03.09.Riding...
MyLifeInMiami.18.12.21.Megan...
MassageRooms.18.12.26.Angel....
MomsBangTeens.18.12.25.Cory....
NHLPCentral.18.12.20.Tindra....
NinaKayy.17.05.14.Betty.Bang...
NinaKayy.17.05.01.Netflix.Ch...

3D
Walhalla.Rising.3D.2009.DUAL...
Sleepwalker.3D.2011.DUAL.COM...
Bis.an.die.Grenzen.des.Unive...
Best.of.3D.vol.13.-.15.GERMA...
Limbradur.und.die.Magie.der....
Kaluoka.Hina.Das.Zauberriff....
Limbradur.und.die.Magie.der....
Smallfoot.3D.2018.COMPLETE.B...
Smallfoot.Ein.eisigartiges.A...
Skyscraper.3D.2018.German.DL...
Meg.3D.2018.MULTi.COMPLETE.B...
Meg.3D.2018.German.DL.1080p....
Gans.im.Glueck.3D.2018.MULTi...
The.Art.of.Flight.3D.2011.Ge...
The.End.Of.The.World.3D.2010...

Old_Stuff
Todfreunde.aka.Bad.Influence...
Animatrix.2003.German.DL.108...
Animatrix.2003.German.DL.720...
Akte.X.S06.German.DTS.DL.108...
The.Beauty.of.Gemina.Minor.S...
ZZ.Top.Live.from.Texas.2008....
Peter.Hase.2018.German.DL.10...
Akte.X.S05.German.DTS.DL.108...
Akte.X.S04.German.DTS.DL.108...
Akte.X.S03.German.DTS.DL.108...
Dunkirk.1958.COMPLETE.BLURAY...
Das.Wunder.von.Manhattan.199...
The.Amazing.Spiderman.2.Rise...
Rise.of.the.Predator.2014.Ge...
Detective.Dee.und.das.Geheim...

Filme
Der.gruene.Bogenschuetze.196...
Die.Prinzessin.und.der.flieg...
American.Animals.2018.German...
American.Animals.2018.German...
Sexgefluester.2007.German.DL...
Sex.Up.Your.Life.2012.German...
Ghostland.2018.German.DL.108...
Ghostland.2018.German.DL.108...
Sex.oder.stirb.2000.German.D...
Halloween.2018.German.Dubbed...
Sex.Killer.Lust.Mord.Wahnsin...
Sex.fuer.Anfaenger.2002.Germ...
Beyond.the.Lights.2014.Germa...
Wintercamping.in.Italien.-.D...
Re.E346.Urlaub.statt.Knast.-...
Welcome.Home.2018.German.DTS...
Der.Hauptmann.2017.German.DT...
Rise.of.the.Scythian.2018.Ge...
Mara.2018.German.DL.1080p.Bl...
Ghost.Bride.2013.German.DL.1...
Predator.Upgrade.2018.German...
Biohazard.Monster.aus.der.Ga...
Tesla.unter.Strom.GERMAN.DOK...
Havanna.1990.German.DL.1080p...

 
 
Mara.2018.German.DL.1080p.BluRay.x265-BluRHD

Jahr: 2018
Genre: Horror, Thriller
Sprache: Deutsch DTS | Englisch DTS
Laufzeit: 1h 38mn
Bitrate: 4 745 Kbps
Format: MKV
Größe: 3.26 GiB
Release:

Beschreibung:

Kriminalpsychologin Kate Fuller untersucht einen Mordfall, bei dem ein Mann offenbar im Schlaf von seiner Frau erwürgt wurde. Einzige Zeugin der Tat ist die achtjährige Tochter Sophie. Als sie den Täter identifizieren soll, nennt Sophie nur einen Namen – MARA. Der Fall lässt Kate keine Ruhe. Während ihrer Recherchen stößt sie auf ähnliche Todesfälle und eine Gruppe, die behauptet, dass es sich um einen uralten Dämonen handelt, der seine Opfer im Schlaf heimsucht und tötet. Als Kate versucht, dem Geheimnis von MARA auf die Spur zu kommen, zeigen sich bei ihr die gleichen Symptome wie bei vorherigen Opfern und plötzlich findet Kate sich selbst in einem höchst realen Albtraum wieder …



Complete name                            : bhd-mara-x265.mkv
Format                                   : Matroska
Format version                           : Version 4 / Version 2
File size                                : 3.26 GiB
Duration                                 : 1h 38mn
Overall bit rate                         : 4 745 Kbps
Encoded date                             : UTC 2018-12-22 04:20:13
Writing application                      : mkvmerge v8.8.0 ('Wind at my back') 32bit
Writing library                          : libebml v1.3.3 + libmatroska v1.4.4
DURATION                                 : 01:37:42.710000000
NUMBER_OF_FRAMES                         : 1213
NUMBER_OF_BYTES                          : 2727868
_STATISTICS_WRITING_APP                  : mkvmerge v8.8.0 ('Wind at my back') 32bit
_STATISTICS_WRITING_DATE_UTC             : 2018-12-22 04:20:13
_STATISTICS_TAGS                         : BPS DURATION NUMBER_OF_FRAMES NUMBER_OF_BYTES

Video
ID                                       : 1
Format                                   : HEVC
Format/Info                              : High Efficiency Video Coding
Format profile                           : Main 10@L4.0
Codec ID                                 : V_MPEGH/ISO/HEVC
Duration                                 : 1h 38mn
Bit rate                                 : 1 633 Kbps
Width                                    : 1 920 pixels
Height                                   : 804 pixels
Display aspect ratio                     : 2.40:1
Frame rate mode                          : Constant
Frame rate                               : 24.000 fps
Color space                              : YUV
Chroma subsampling                       : 4:2:0
Bit depth                                : 10 bits
Bits/(Pixel*Frame)                       : 0.044
Stream size                              : 1.12 GiB (34%)
Writing library                          : x265 2.6:[Windows][GCC 7.1.0][64 bit] 10bit
Encoding settings                        : cpuid=1050111 / frame-threads=5 / numa-pools=16,16 / wpp / no-pmode / no-pme / no-psnr / no-ssim / log-level=2 / input-csp=1 / input-res=1920x804 / interlace=0 / total-frames=0 / level-idc=0 / high-tier=1 / uhd-bd=0 / ref=4 / no-allow-non-conformance / no-repeat-headers / annexb / no-aud / no-hrd / info / hash=0 / no-temporal-layers / open-gop / min-keyint=24 / keyint=240 / bframes=4 / b-adapt=2 / b-pyramid / bframe-bias=0 / rc-lookahead=25 / lookahead-slices=4 / scenecut=40 / no-intra-refresh / ctu=64 / min-cu-size=8 / rect / no-amp / max-tu-size=32 / tu-inter-depth=1 / tu-intra-depth=1 / limit-tu=0 / rdoq-level=2 / dynamic-rd=0.00 / no-ssim-rd / signhide / no-tskip / nr-intra=0 / nr-inter=0 / no-constrained-intra / strong-intra-smoothing / max-merge=3 / limit-refs=3 / limit-modes / me=3 / subme=3 / merange=57 / temporal-mvp / weightp / no-weightb / no-analyze-src-pics / deblock=0:0 / sao / no-sao-non-deblock / rd=4 / no-early-skip / rskip / no-fast-intra / no-tskip-fast / no-cu-lossless / no-b-intra / no-splitrd-skip / rdpenalty=0 / psy-rd=2.00 / psy-rdoq=1.00 / no-rd-refine / analysis-reuse-mode=0 / no-lossless / cbqpoffs=0 / crqpoffs=0 / rc=crf / crf=18.0 / qcomp=0.60 / qpstep=4 / stats-write=0 / stats-read=0 / ipratio=1.40 / pbratio=1.30 / aq-mode=1 / aq-strength=1.00 / cutree / zone-count=0 / no-strict-cbr / qg-size=32 / no-rc-grain / qpmax=69 / qpmin=0 / no-const-vbv / sar=1 / overscan=0 / videoformat=5 / range=0 / colorprim=1 / transfer=1 / colormatrix=1 / chromaloc=0 / display-window=0 / max-cll=0,0 / min-luma=0 / max-luma=1023 / log2-max-poc-lsb=8 / vui-timing-info / vui-hrd-info / slices=1 / no-opt-qp-pps / no-opt-ref-list-length-pps / no-multi-pass-opt-rps / scenecut-bias=0.05 / no-opt-cu-delta-qp / no-aq-motion / no-hdr / no-hdr-opt / no-dhdr10-opt / analysis-reuse-level=5 / scale-factor=0 / refine-intra=0 / refine-inter=0 / refine-mv=0 / no-limit-sao / ctu-info=0 / no-lowpass-dct / refine-mv-type=0 / copy-pic=1
Default                                  : Yes
Forced                                   : No
DURATION                                 : 01:38:12.417000000
NUMBER_OF_FRAMES                         : 141418
NUMBER_OF_BYTES                          : 1265812085
_STATISTICS_WRITING_APP                  : mkvmerge v8.8.0 ('Wind at my back') 32bit
_STATISTICS_WRITING_DATE_UTC             : 2018-12-22 04:20:13
_STATISTICS_TAGS                         : BPS DURATION NUMBER_OF_FRAMES NUMBER_OF_BYTES

Audio #1
ID                                       : 2
Format                                   : DTS
Format/Info                              : Digital Theater Systems
Mode                                     : 16
Format settings, Endianness              : Big
Codec ID                                 : A_DTS
Duration                                 : 1h 38mn
Bit rate mode                            : Constant
Bit rate                                 : 1 509 Kbps
Channel(s)                               : 6 channels
Channel positions                        : Front: L C R, Side: L R, LFE
Sampling rate                            : 48.0 KHz
Bit depth                                : 24 bits
Compression mode                         : Lossy
Stream size                              : 1.04 GiB (32%)
Title                                    : German
Language                                 : German
Default                                  : Yes
Forced                                   : No

Audio #2
ID                                       : 3
Format                                   : DTS
Format/Info                              : Digital Theater Systems
Mode                                     : 16
Format settings, Endianness              : Big
Codec ID                                 : A_DTS
Duration                                 : 1h 38mn
Bit rate mode                            : Constant
Bit rate                                 : 1 509 Kbps
Channel(s)                               : 6 channels
Channel positions                        : Front: L C R, Side: L R, LFE
Sampling rate                            : 48.0 KHz
Bit depth                                : 24 bits
Compression mode                         : Lossy
Stream size                              : 1.04 GiB (32%)
Title                                    : English
Language                                 : English
Default                                  : No
Forced                                   : No


Download:
Share Online Share OnlineShare OnlineShare Online
 

Kommentare