HD-AREA wünscht Euch eine besinnliche Weihnachtszeit ;)

DNS SERVER AENDERNum der staatlichen Zensur zu umgehen. Sollten wir von eurem Provider geseprrt werden, nutzt den TOR BROWSER oder ändert euren DNS SERVER.

Filmwünsche können bei uns im Forum abgegeben werden

Wir Speichern Nicht




 
 
 
Top Releases
Smallfoot.Ein.eisigartiges.A...
Smallfoot.Ein.eisigartiges.A...
Smallfoot.Ein.eisigartiges.A...
Hubert.und.Staller.Eine.scho...
Hubert.und.Staller.Eine.scho...
Hubert.und.Staller.Eine.scho...
Bird.Box.Schliesse.deine.Aug...
Bird.Box.Schliesse.deine.Aug...
Halloween.German.DL.AC3.Dubb...
Halloween.German.DL.AC3.Dubb...

Cinedubs
Aquaman.2018.GERMAN.AC3.MD.7...
Bad.Spies.German.DL.AC3.Dubb...
Bad.Spies.German.DL.AC3.Dubb...
Bad.Times.at.the.El.Royale.G...
Bad.Times.at.the.El.Royale.G...
The.Guilty.German.DL.AC3.Dub...
The.Guilty.German.DL.AC3.Dub...
Johnny.English.Man.lebt.nur....
Johnny.English.Man.lebt.nur....
Johnny.English.Man.lebt.nur....

Neuerscheinungen 2017-18
Wildling.2018.DUAL.COMPLETE....
They.Came.Together.2014.Germ...
Spinning.Man.Im.Dunkel.deine...
Amores.perros.2000.German.10...
Predator.Upgrade.2018.German...
Predator.Upgrade.2018.German...
Wilde.Kraeuter.2018.German.1...
Wilde.Kraeuter.2018.German.7...
Spinning.Man.Im.Dunkel.deine...
Spinning.Man.Im.Dunkel.deine...

XXX
Private.18.12.11.Lilu.Moon.A...
LethalHardcore.Sperm.Filled....
ProducersFun.18.08.10.Natash...
LaurenPhillips.17.10.06.Carm...
NuruMassage.18.12.12.Gianna....
ProducersFun.18.08.24.Shae.C...
Private.Movies.36.Scent.Of.A...
LaurenPhillips.17.10.27.Deep...
Only-Opaques.17.08.19.Alexa....
TeensLikeItBig.18.12.03.Jane...
NubileFilms.18.12.10.Mindy.A...
Nubiles.18.12.12.Laura.Angel...
TheLifeErotic.18.12.11.Gabri...
TheRealWorkout.18.12.09.Lala...
SugarCookie.18.11.30.Lindsey...
TakeVan.18.12.10.Phoenix.Mon...
ProducersFun.18.08.19.Ashly....
OldYoungLesbianLove.18.12.10...
SugarDaddyPORN.18.12.10.Pipe...
Nympho.18.12.11.Nia.Nacci.XX...

3D
Smallfoot.3D.2018.COMPLETE.B...
Smallfoot.Ein.eisigartiges.A...
Skyscraper.3D.2018.German.DL...
Meg.3D.2018.MULTi.COMPLETE.B...
Meg.3D.2018.German.DL.1080p....
Gans.im.Glueck.3D.2018.MULTi...
The.Art.of.Flight.3D.2011.Ge...
The.End.Of.The.World.3D.2010...
The.First.Avenger.Civil.War....
Die.Unglaublichen.2.2018.3D....
Skyscraper.3D.2018.MULTi.COM...
Ant-Man.And.The.Wasp.3D.2018...
Ant.Man.and.the.Wasp.3D.2018...
Die.Unglaublichen.2.3D.2018....
Die.Unglaublichen.2.2018.3D....

Old_Stuff
Akte.X.S05.German.DTS.DL.108...
Akte.X.S04.German.DTS.DL.108...
Akte.X.S03.German.DTS.DL.108...
Dunkirk.1958.COMPLETE.BLURAY...
Das.Wunder.von.Manhattan.199...
The.Amazing.Spiderman.2.Rise...
Rise.of.the.Predator.2014.Ge...
Detective.Dee.und.das.Geheim...
Detective.Dee.Und.Der.Fluch....
Ghost.Rider.Spirit.of.Vengea...
Species.IV.Das.Erwachen.2007...
Species.IV.Das.Erwachen.2007...
Hotel.Transsilvanien.2012.Ge...
The.Dead.2010.German.DL.1080...
The.Dead.2.India.2013.German...

Filme
Paradox.Kill.Zone.Bangkok.20...
They.Came.Together.2014.Germ...
The.Nun.2018.German.UHDBD.21...
Reprisal.Nimm.Dir.was.Dir.ge...
The.Swell.Wenn.die.Deiche.br...
Ray.Donovan.S06.GERMAN.DUBBE...
Ray.Donovan.S06.GERMAN.DUBBE...
Outlander.S04.German.DD51.DL...
Outlander.S04.German.DD51.DL...
Ice.S02.GERMAN.DL.1080p.HDTV...
Ice.S02.GERMAN.DL.720p.HDTV....
Elvira.-.Herrscherin.der.Dun...
Men.At.Work.1990.German.DL.1...
I.Still.See.You.Sie.lassen.d...
Monster.Hunt.2.2018.German.D...
Leanders.letzte.Reise.2017.G...
Leanders.letzte.Reise.2017.G...
Shapeshifter.2018.German.DL....
Mohawk.2017.German.DL.1080p....
Frankensteins.Kampf.gegen.di...
Frankensteins.Kampf.gegen.di...
Amores.perros.2000.German.72...
2.ungleiche.Freunde.2005.Ger...
Animal.House.1978.German.DL....

 
 
They.Came.Together.2014.German.720p.BluRay.x264-iNKLUSiON

Jahr: 2014
Genre: Komödie
Sprache: Deutsch DTS
Laufzeit: 1h 23mn
Bitrate: 3 990 Kbps
Format: MKV
Größe: 2.33 GiB
Release:

Beschreibung:

Als Joel und Molly sich das erste Mal begegnen, ist es Hass auf den ersten Blick: Joels Corporate Candy Company ist als größter Konkurrent drauf und dran, Mollys kleinen Süßwarenladen zu verdrängen. Zufällig laufen sich die beiden aber immer wieder über den Weg, und – wer hätte es gedacht – verlieben sich schließlich ineinander. Es ist eine Geschichte, wie sie sonst eigentlich nur im Film passiert, finden ihre Freunde. Als die Beziehung jedoch auseinanderbricht, müssen Joel und Molly handeln – denn zu einer
echten romantischen Komödie gehört immerhin auch ein Happy End, oder?



Complete name                            : inkl-cametogether-720p.mkv
Format                                   : Matroska
Format version                           : Version 4 / Version 2
File size                                : 2.33 GiB
Duration                                 : 1h 23mn
Overall bit rate                         : 3 990 Kbps
Encoded date                             : UTC 2018-12-22 19:32:19
Writing application                      : mkvmerge v9.0.1 ('Obstacles') 64bit
Writing library                          : libebml v1.3.3 + libmatroska v1.4.4
DURATION                                 : 01:18:12.389000000
NUMBER_OF_FRAMES                         : 8
NUMBER_OF_BYTES                          : 159
_STATISTICS_WRITING_APP                  : mkvmerge v9.0.1 ('Obstacles') 64bit
_STATISTICS_WRITING_DATE_UTC             : 2018-12-22 19:32:19
_STATISTICS_TAGS                         : BPS DURATION NUMBER_OF_FRAMES NUMBER_OF_BYTES

Video
ID                                       : 1
Format                                   : AVC
Format/Info                              : Advanced Video Codec
Format profile                           : High@L4.1
Format settings, CABAC                   : Yes
Format settings, ReFrames                : 5 frames
Codec ID                                 : V_MPEG4/ISO/AVC
Duration                                 : 1h 23mn
Bit rate                                 : 2 402 Kbps
Width                                    : 1 280 pixels
Height                                   : 720 pixels
Display aspect ratio                     : 16:9
Frame rate mode                          : Constant
Frame rate                               : 23.976 fps
Color space                              : YUV
Chroma subsampling                       : 4:2:0
Bit depth                                : 8 bits
Scan type                                : Progressive
Bits/(Pixel*Frame)                       : 0.109
Stream size                              : 1.40 GiB (60%)
Writing library                          : x264 core 157 r2935 545de2f
Encoding settings                        : cabac=1 / ref=5 / deblock=1:-1:-1 / analyse=0x3:0x113 / me=umh / subme=7 / psy=1 / psy_rd=1.00:0.00 / mixed_ref=1 / me_range=16 / chroma_me=1 / trellis=1 / 8x8dct=1 / cqm=0 / deadzone=21,11 / fast_pskip=0 / chroma_qp_offset=-2 / threads=12 / lookahead_threads=2 / sliced_threads=0 / nr=0 / decimate=1 / interlaced=0 / bluray_compat=0 / constrained_intra=0 / bframes=3 / b_pyramid=2 / b_adapt=1 / b_bias=0 / direct=3 / weightb=1 / open_gop=0 / weightp=2 / keyint=250 / keyint_min=23 / scenecut=40 / intra_refresh=0 / rc_lookahead=40 / rc=crf / mbtree=1 / crf=20.0 / qcomp=0.60 / qpmin=0 / qpmax=69 / qpstep=4 / ip_ratio=1.40 / aq=1:1.00
Default                                  : Yes
Forced                                   : No

Audio
ID                                       : 2
Format                                   : DTS
Format/Info                              : Digital Theater Systems
Mode                                     : 16
Format settings, Endianness              : Big
Codec ID                                 : A_DTS
Duration                                 : 1h 23mn
Bit rate mode                            : Constant
Bit rate                                 : 1 509 Kbps
Channel(s)                               : 6 channels
Channel positions                        : Front: L C R, Side: L R, LFE
Sampling rate                            : 48.0 KHz
Bit depth                                : 24 bits
Compression mode                         : Lossy
Stream size                              : 903 MiB (38%)
Language                                 : German
Default                                  : Yes
Forced                                   : No

Text
ID                                       : 3
Format                                   : UTF-8
Codec ID                                 : S_TEXT/UTF8
Codec ID/Info                            : UTF-8 Plain Text
Language                                 : German
Default                                  : Yes
Forced                                   : Yes


Download:
Share Online Share OnlineShare OnlineShare Online
 

Kommentare