HD-AREA wünscht Euch eine besinnliche Weihnachtszeit ;)

DNS SERVER AENDERNum der staatlichen Zensur zu umgehen. Sollten wir von eurem Provider geseprrt werden, nutzt den TOR BROWSER oder ändert euren DNS SERVER.

Filmwünsche können bei uns im Forum abgegeben werden

Wir Speichern Nicht




 
 
 
Top Releases
Smallfoot.Ein.eisigartiges.A...
Smallfoot.Ein.eisigartiges.A...
Smallfoot.Ein.eisigartiges.A...
Hubert.und.Staller.Eine.scho...
Hubert.und.Staller.Eine.scho...
Hubert.und.Staller.Eine.scho...
Bird.Box.Schliesse.deine.Aug...
Bird.Box.Schliesse.deine.Aug...
Halloween.German.DL.AC3.Dubb...
Halloween.German.DL.AC3.Dubb...

Cinedubs
Aquaman.2018.GERMAN.AC3.MD.7...
Bad.Spies.German.DL.AC3.Dubb...
Bad.Spies.German.DL.AC3.Dubb...
Bad.Times.at.the.El.Royale.G...
Bad.Times.at.the.El.Royale.G...
The.Guilty.German.DL.AC3.Dub...
The.Guilty.German.DL.AC3.Dub...
Johnny.English.Man.lebt.nur....
Johnny.English.Man.lebt.nur....
Johnny.English.Man.lebt.nur....

Neuerscheinungen 2017-18
Spinning.Man.Im.Dunkel.deine...
Amores.perros.2000.German.10...
Predator.Upgrade.2018.German...
Predator.Upgrade.2018.German...
Wilde.Kraeuter.2018.German.1...
Wilde.Kraeuter.2018.German.7...
Spinning.Man.Im.Dunkel.deine...
Spinning.Man.Im.Dunkel.deine...
They.Came.Together.2014.MULT...
The.Darkest.Minds.2018.MULTI...

XXX
ReadyOrNotHereICum.18.12.12....
Only-Opaques.17.06.26.Sophie...
RealWifeStories.18.12.11.Eva...
Submissived.18.12.10.Scarlet...
ProducersFun.18.03.25.Krissy...
LaurenPhillips.17.09.29.Carm...
Stunning18.18.12.10.Borya.E....
LaurenPhillips.17.07.07.How....
Spizoo.18.12.12.Sizi.Sev.Squ...
Nubiles.18.12.12.Elina.De.Le...
LaurenPhillips.17.09.22.Dres...
LaurenPhillips.17.09.15.Ravi...
Only-Opaques.17.08.03.Asha.E...
RKPrime.18.12.10.Stella.Raee...
SpyFam.18.12.10.Hannah.Hawth...
SexArt.18.12.12.Shrima.Malat...
Nubiles.18.12.11.Amber.Serra...
ProducersFun.18.08.04.Blair....
Nubiles.18.12.10.Dominka.Jul...
ProducersFun.18.03.20.Sophia...

3D
Smallfoot.3D.2018.COMPLETE.B...
Smallfoot.Ein.eisigartiges.A...
Skyscraper.3D.2018.German.DL...
Meg.3D.2018.MULTi.COMPLETE.B...
Meg.3D.2018.German.DL.1080p....
Gans.im.Glueck.3D.2018.MULTi...
The.Art.of.Flight.3D.2011.Ge...
The.End.Of.The.World.3D.2010...
The.First.Avenger.Civil.War....
Die.Unglaublichen.2.2018.3D....
Skyscraper.3D.2018.MULTi.COM...
Ant-Man.And.The.Wasp.3D.2018...
Ant.Man.and.the.Wasp.3D.2018...
Die.Unglaublichen.2.3D.2018....
Die.Unglaublichen.2.2018.3D....

Old_Stuff
Akte.X.S05.German.DTS.DL.108...
Akte.X.S04.German.DTS.DL.108...
Akte.X.S03.German.DTS.DL.108...
Dunkirk.1958.COMPLETE.BLURAY...
Das.Wunder.von.Manhattan.199...
The.Amazing.Spiderman.2.Rise...
Rise.of.the.Predator.2014.Ge...
Detective.Dee.und.das.Geheim...
Detective.Dee.Und.Der.Fluch....
Ghost.Rider.Spirit.of.Vengea...
Species.IV.Das.Erwachen.2007...
Species.IV.Das.Erwachen.2007...
Hotel.Transsilvanien.2012.Ge...
The.Dead.2010.German.DL.1080...
The.Dead.2.India.2013.German...

Filme
I.Still.See.You.Sie.lassen.d...
Monster.Hunt.2.2018.German.D...
Leanders.letzte.Reise.2017.G...
Leanders.letzte.Reise.2017.G...
Shapeshifter.2018.German.DL....
Mohawk.2017.German.DL.1080p....
Frankensteins.Kampf.gegen.di...
Frankensteins.Kampf.gegen.di...
Amores.perros.2000.German.72...
2.ungleiche.Freunde.2005.Ger...
Animal.House.1978.German.DL....
Citadel.Wo.das.Boese.wohnt.2...
Ein.ewiger.Kampf.Leben.und.K...
Ein.ewiger.Kampf.Leben.und.K...
Beziehungsweise.New.York.201...
Man.nennt.mich.Bruce.1982.AM...
The.Happy.Prince.2018.German...
The.Happy.Prince.2018.German...
The.Happy.Prince.2018.German...
Goldfinger.1964.2160to1080p....
Ein.Lied.in.Gottes.Ohr.2017....
Mona.Lisas.Laecheln.2003.Ger...
Spinning.Man.Im.Dunkel.deine...
La.Femme.Nikita.1990.German....

 
 
Wilde.Kraeuter.2018.German.1080p.WEB.x264.iNTERNAL-BiGiNT

Jahr: 2018
Genre: Komödie
Sprache: Deutsch AC3
Laufzeit: 1h 45mn
Bitrate: 4 012 Kbps
Format: MKV
Größe: 2.95 GiB
Release:

Beschreibung:

Das ehemalige Straßenkind Wael (Kheiron) lebt in einem Vorort von Paris, wo er sich zusammen mit seiner Partnerin Monique (Catherine Deneuve), einer Rentnerin, mit kleinen Betrügereien über Wasser hält. Die Begleitung der rüstigen Dame hat vor allem einen Vorteil: Wael wirkt deutlich weniger verdächtig. Doch als sich dann mit Victor (André Dussollier) ein weiterer Rentner zu dem Duo gesellt, ändert sich schlagartig alles.



Complete name                            : wilde.kraeuter.2018.german.1080p.web.x264.internal-bigint.mkv
Format                                   : Matroska
Format version                           : Version 4 / Version 2
File size                                : 2.95 GiB
Duration                                 : 1h 45mn
Overall bit rate mode                    : Variable
Overall bit rate                         : 4 012 Kbps
Encoded date                             : UTC 2018-12-21 20:22:25
Writing application                      : mkvmerge v22.0.0 ('At The End Of The World') 64-bit
Writing library                          : libebml v1.3.5 + libmatroska v1.4.8
DURATION                                 : 01:43:59.250000000
NUMBER_OF_FRAMES                         : 90
NUMBER_OF_BYTES                          : 2250
_STATISTICS_WRITING_APP                  : mkvmerge v22.0.0 ('At The End Of The World') 64-bit
_STATISTICS_WRITING_DATE_UTC             : 2018-12-21 20:22:25
_STATISTICS_TAGS                         : BPS DURATION NUMBER_OF_FRAMES NUMBER_OF_BYTES

Video
ID                                       : 1
Format                                   : AVC
Format/Info                              : Advanced Video Codec
Format profile                           : Main@L4.0
Format settings, CABAC                   : Yes
Format settings, ReFrames                : 3 frames
Codec ID                                 : V_MPEG4/ISO/AVC
Duration                                 : 1h 45mn
Bit rate mode                            : Variable
Bit rate                                 : 3 650 Kbps
Maximum bit rate                         : 5 475 Kbps
Width                                    : 1 920 pixels
Height                                   : 1 080 pixels
Display aspect ratio                     : 16:9
Frame rate mode                          : Constant
Frame rate                               : 24.000 fps
Color space                              : YUV
Chroma subsampling                       : 4:2:0
Bit depth                                : 8 bits
Scan type                                : Progressive
Bits/(Pixel*Frame)                       : 0.073
Stream size                              : 2.61 GiB (88%)
Writing library                          : x264 core 148 r2715 7e75228
Encoding settings                        : cabac=1 / ref=3 / deblock=1:0:0 / analyse=0x1:0x111 / me=umh / subme=10 / psy=1 / psy_rd=1.00:0.00 / mixed_ref=1 / me_range=24 / chroma_me=1 / trellis=2 / 8x8dct=0 / cqm=0 / deadzone=21,11 / fast_pskip=1 / chroma_qp_offset=-2 / threads=8 / lookahead_threads=1 / sliced_threads=0 / nr=0 / decimate=1 / interlaced=0 / bluray_compat=0 / stitchable=1 / constrained_intra=0 / bframes=2 / b_pyramid=0 / b_adapt=2 / b_bias=0 / direct=3 / weightb=1 / open_gop=0 / weightp=2 / keyint=48 / keyint_min=25 / scenecut=0 / intra_refresh=0 / rc_lookahead=48 / rc=2pass / mbtree=1 / bitrate=3650 / ratetol=1.0 / qcomp=0.50 / qpmin=6 / qpmax=51 / qpstep=4 / cplxblur=20.0 / qblur=0.5 / vbv_maxrate=5475 / vbv_bufsize=7300 / nal_hrd=vbr / filler=0 / ip_ratio=1.40 / aq=1:1.00
Default                                  : Yes
Forced                                   : No

Audio
ID                                       : 2
Format                                   : AC-3
Format/Info                              : Audio Coding 3
Mode extension                           : CM (complete main)
Format settings, Endianness              : Big
Codec ID                                 : A_AC3
Duration                                 : 1h 45mn
Bit rate mode                            : Constant
Bit rate                                 : 384 Kbps
Channel(s)                               : 6 channels
Channel positions                        : Front: L C R, Side: L R, LFE
Sampling rate                            : 48.0 KHz
Bit depth                                : 16 bits
Compression mode                         : Lossy
Stream size                              : 289 MiB (10%)
Language                                 : German
Default                                  : Yes
Forced                                   : No


Download:
Share Online Share OnlineShare OnlineShare Online
 

Kommentare